<?xml version="1.0" standalone="no"?>
<!DOCTYPE svg PUBLIC "-//W3C//DTD SVG 1.1//EN" "http://www.w3.org/Graphics/SVG/1.1/DTD/svg11.dtd">
<svg xmlns="http://www.w3.org/2000/svg">
<defs >
<font id="Heebo" horiz-adv-x="1072" ><font-face
    font-family="Heebo"
    units-per-em="2048"
    panose-1="0 0 0 0 0 0 0 0 0 0"
    ascent="2146"
    descent="-862"
    alphabetic="0" />
<glyph unicode=" " horiz-adv-x="511" />
<glyph unicode="!" horiz-adv-x="562" d="M413 452H164L128 1456H449L413 452ZM120 142Q120 210 165 255T288 301Q365 301 411 256T457 142Q457 75 411 29T288 -17Q211 -17 166 29T120 142Z" />
<glyph unicode="&quot;" horiz-adv-x="659" d="M265 1399L225 980H56V1386V1537H265V1399ZM597 1399L557 980H389V1394V1537H597V1399Z" />
<glyph unicode="#" horiz-adv-x="1217" d="M466 1456H653L401 0H213L466 1456ZM838 1456H1027L774 0H585L838 1456ZM134 862V1040H1174V862H134ZM58 410V588H1099V410H58Z" />
<glyph unicode="$" horiz-adv-x="1178" d="M706 1391H545V1687H706V1391ZM685 -216H524V55H685V-216ZM782 385Q782 440 763 477T700 544T584 601Q453 652 354 709T200 852T145 1069Q145 1194 204 1285T369 1427T614 1477Q756 1477 862 1421T1026 1260T1085 1005H784Q784
1122 736 1178T610 1235Q553 1235 517 1213T464 1153T447 1068Q447 1020 465 985T527 919T648 858Q777 806 875 747T1029 603T1085 387Q1085 257 1024 166T855 27T603 -21Q510 -21 419 3T254 84T135 232T90 461H392Q392 392 410 346T458 272T525 233T603 221Q663
221 703 242T762 300T782 385Z" />
<glyph unicode="%" horiz-adv-x="1513" d="M94 1176Q94 1259 130 1327T237 1436T412 1477Q518 1477 589 1436T695 1327T731 1176V1099Q731 1018 696 950T590 841T414 800Q309 800 238 841T131 950T94 1099V1176ZM293 1099Q293 1066 306 1038T347 991T414 973Q454
973 480 991T518 1037T531 1099V1176Q531 1210 518 1239T479 1286T412 1304Q373 1304 347 1286T307 1239T293 1176V1099ZM788 357Q788 439 824 507T932 616T1107 657Q1213 657 1283 616T1390 507T1426 357V280Q1426 198 1391 130T1285 21T1109 -20Q1004 -20 933
21T825 130T788 280V357ZM988 280Q988 246 1003 218T1045 171T1109 153Q1156 153 1181 171T1216 217T1226 280V357Q1226 407 1197 445T1107 484Q1047 484 1018 446T988 357V280ZM472 108L327 186L1038 1324L1183 1246L472 108Z" />
<glyph unicode="&amp;" horiz-adv-x="1352" d="M620 959Q682 999 701 1035T720 1113Q720 1157 688 1195T594 1234Q528 1234 495 1193T462 1094Q462 1027 514 956T643 795L1328 0H986L430 640Q324 771 259 874T193 1090Q193 1206 243 1292T383 1428T595 1477Q709
1477 793 1430T924 1304T970 1133Q970 1066 946 1008T877 901T775 811L452 581Q418 552 401 523T377 467T371 412Q371 357 395 314T462 247T561 222Q641 222 716 258T852 360T948 518T984 719H1240Q1240 547 1189 401T1013 155Q1006 151 995 142T977 128Q880 52
776 16T544 -21Q397 -21 290 32T126 178T68 392Q68 479 102 543T198 663T338 775L620 959Z" />
<glyph unicode="&apos;" horiz-adv-x="329" d="M278 1386L248 976H58V1372V1536H278V1386Z" />
<glyph unicode="(" horiz-adv-x="722" d="M124 592Q124 803 169 975T288 1276T450 1491T624 1614L682 1453Q626 1411 572 1340T473 1165T402 918T376 594V566Q376 383 402 242T472 -4T571 -181T682 -295L624 -454Q538 -417 450 -332T288 -117T169 185T124 568V592Z" />
<glyph unicode=")" horiz-adv-x="724" d="M615 568Q615 365 569 195T446 -108T279 -329T99 -454L40 -295Q96 -254 150 -183T248 -6T319 241T346 566V594Q346 776 319 918T247 1165T149 1342T40 1455L99 1614Q188 1577 279 1489T446 1268T568 965T615 592V568Z" />
<glyph unicode="*" horiz-adv-x="934" d="M343 960L27 1049L88 1234L399 1107L378 1456H580L559 1101L862 1224L923 1037L602 948L813 684L650 568L468 860L288 578L124 689L343 960Z" />
<glyph unicode="+" horiz-adv-x="1114" d="M1053 549H55V821H1053V549ZM698 146H412V1206H698V146Z" />
<glyph unicode="," horiz-adv-x="512" d="M393 48Q393 -68 336 -184T192 -374L36 -294Q60 -249 84 -203T125 -99T141 31V250H394L393 48Z" />
<glyph unicode="-" horiz-adv-x="821" d="M690 502H119V746H690V502Z" />
<glyph unicode="." horiz-adv-x="603" d="M124 149Q124 217 170 263T293 309Q371 309 417 263T463 149Q463 81 417 35T293 -11Q217 -11 171 35T124 149Z" />
<glyph unicode="/" horiz-adv-x="758" d="M205 -125H-17L511 1456H733L205 -125Z" />
<glyph unicode="0" horiz-adv-x="1178" d="M1085 601Q1085 384 1023 247T850 45T591 -20Q444 -20 332 45T157 247T94 601V857Q94 1075 156 1211T330 1411T589 1476Q736 1476 847 1412T1022 1211T1085 857V601ZM782 899Q782 1024 759 1096T693 1200T589 1232Q528
1232 485 1201T419 1097T396 899V561Q396 435 419 361T486 255T591 223Q652 223 694 255T759 361T782 561V899Z" />
<glyph unicode="1" horiz-adv-x="1178" d="M810 0H508V1099L167 996V1240L779 1458H810V0Z" />
<glyph unicode="2" horiz-adv-x="1178" d="M1100 0H97V206L567 706Q637 782 677 839T735 944T752 1032Q752 1127 706 1180T572 1234Q507 1234 462 1203T394 1118T370 995H68Q68 1127 130 1236T306 1411T578 1477Q811 1477 933 1366T1055 1061Q1055 962 1015 872T902
691T729 497L487 243H1100V0Z" />
<glyph unicode="3" horiz-adv-x="1178" d="M550 861Q620 861 666 885T734 953T757 1056Q757 1107 737 1147T674 1210T568 1234Q519 1234 476 1215T407 1162T381 1080H79Q79 1201 144 1290T318 1428T560 1477Q709 1477 821 1430T997 1290T1060 1061Q1060 990 1028
925T935 809T790 728T599 698H394V861H550ZM394 785H599Q718 785 808 759T959 683T1051 564T1082 409Q1082 273 1013 177T826 31T560 -20Q467 -20 378 5T218 82T103 212T60 400H364Q364 350 390 310T463 247T568 223Q667 223 723 276T780 414Q780 490 752 536T673
604T550 625H394V785Z" />
<glyph unicode="4" horiz-adv-x="1178" d="M1122 312H70L56 503L657 1456H897L641 1014L353 555H1122V312ZM961 0H660V1456H961V0Z" />
<glyph unicode="5" horiz-adv-x="1178" d="M135 714L220 1456H1044V1207H468L433 905Q461 920 518 939T648 958Q790 958 889 900T1040 733T1093 468Q1093 340 1040 229T876 49T598 -20Q502 -20 414 9T255 93T144 228T100 408H400Q408 322 460 273T596 223Q667
223 710 258T772 354T791 487Q791 561 767 616T692 703T564 734Q487 734 445 709T376 655L135 714Z" />
<glyph unicode="6" horiz-adv-x="1178" d="M888 1473V1224H870Q758 1224 671 1193T523 1103T431 960T400 769V521Q400 421 426 355T499 257T608 224Q669 224 714 257T784 348T809 479Q809 555 784 612T712 702T602 735Q535 735 486 705T410 629T381 534L292 600Q295
671 324 738T405 859T531 945T696 977Q833 977 925 910T1063 730T1110 480Q1110 339 1049 226T876 46T615 -20Q498 -20 403 22T240 140T134 324T97 563V676Q97 854 149 1000T298 1252T534 1415T844 1473H888Z" />
<glyph unicode="7" horiz-adv-x="1178" d="M1094 1288L536 0H217L775 1213H59V1456H1094V1288Z" />
<glyph unicode="8" horiz-adv-x="1178" d="M1084 401Q1084 262 1020 169T844 28T591 -20Q449 -20 337 27T159 168T93 401Q93 525 158 616T335 757T589 807Q731 807 843 758T1019 617T1084 401ZM782 423Q782 486 758 531T691 600T589 624Q531 624 488 600T420 531T396
423Q396 361 420 317T488 248T591 223Q649 223 692 247T758 316T782 423ZM1053 1068Q1053 956 994 871T831 737T591 689Q455 689 350 737T184 870T124 1068Q124 1201 184 1292T349 1430T589 1477Q725 1477 830 1430T994 1292T1053 1068ZM752 1053Q752 1108 733
1148T677 1211T589 1234Q538 1234 502 1212T446 1150T427 1053Q427 998 446 956T501 891T591 868Q643 868 678 891T733 956T752 1053Z" />
<glyph unicode="9" horiz-adv-x="1178" d="M323 237Q439 237 524 263T665 340T746 469T773 650V938Q773 1037 748 1102T678 1200T577 1233Q516 1233 474 1194T409 1094T387 963Q387 891 408 831T474 736T587 700Q634 700 672 717T737 764T779 829T795 901L893
838Q893 772 864 707T781 588T659 502T511 470Q375 470 280 533T135 708T85 960Q85 1102 146 1219T318 1407T578 1477Q689 1477 780 1436T938 1316T1039 1128T1075 882V778Q1075 632 1044 509T952 289T801 123T592 20T327 -16H304V237H323Z" />
<glyph unicode=":" horiz-adv-x="589" d="M378 149Q378 217 424 263T547 309Q625 309 671 263T717 149Q717 81 671 35T547 -11Q471 -11 425 35T378 149ZM123 960Q123 1028 169 1074T292 1120Q370 1120 416 1074T462 960Q462 892 416 846T292 800Q216 800 170 846T123
960Z" />
<glyph unicode=";" horiz-adv-x="550" d="M107 960Q107 1028 153 1074T276 1120Q354 1120 400 1074T446 960Q446 892 400 846T276 800Q200 800 154 846T107 960ZM416 48Q416 -68 359 -184T215 -374L59 -294Q83 -249 107 -203T148 -99T164 31V250H417L416 48Z" />
<glyph unicode="&lt;" horiz-adv-x="1043" d="M918 422V130L53 493V703L291 638L918 422ZM291 592L53 530V741L918 1104V814L291 592Z" />
<glyph unicode="=" horiz-adv-x="1178" d="M1036 738H135V983H1036V738ZM1036 304H135V549H1036V304Z" />
<glyph unicode="&gt;" horiz-adv-x="1057" d="M119 814V1103L992 740V530L750 598L119 814ZM751 641L992 703V493L119 130V419L751 641Z" />
<glyph unicode="?" horiz-adv-x="1027" d="M346 452Q346 542 360 608T406 729T496 833Q542 872 576 909T631 984T651 1069Q651 1150 614 1190T502 1230Q443 1230 395 1192T346 1065H42Q44 1207 105 1298T270 1432T502 1476Q715 1476 834 1375T954 1083Q954 995
920 930T831 807T709 688Q652 638 633 584T611 452H346ZM314 147Q314 215 360 260T483 306Q560 306 605 261T651 147Q651 80 606 34T483 -12Q406 -12 360 34T314 147Z" />
<glyph unicode="@" horiz-adv-x="1832" d="M1748 540Q1744 437 1718 337T1639 156T1504 27T1307 -21Q1176 -21 1100 66T1034 301L1085 881H1294L1243 301Q1238 254 1245 224T1267 177T1303 153T1345 146Q1409 146 1456 197T1531 336T1562 532Q1573 748 1512 909T1313
1159T959 1248Q756 1248 608 1145T378 865T284 462Q275 280 312 143T428 -86T624 -226T895 -273Q982 -273 1072 -254T1226 -205L1264 -364Q1194 -409 1089 -431T891 -453Q626 -453 441 -349T162 -40T80 462Q89 667 154 840T334 1143T608 1343T963 1414Q1224 1414
1403 1305T1670 999T1748 540ZM746 432Q739 345 751 286T795 197T876 167Q902 167 934 185T999 250T1052 385L1140 277Q1094 131 1007 57T804 -18Q706 -18 637 38T535 195T515 432Q535 603 600 728T765 921T984 990Q1101 990 1167 957T1294 881L1189 734Q1160 759
1114 783T1003 808Q927 808 874 765T790 638T746 432Z" />
<glyph unicode="A" horiz-adv-x="1385" d="M340 0H5L546 1456H758L728 1180L340 0ZM657 1180L624 1456H837L1381 0H1046L657 1180ZM1036 290H264V544H1036V290Z" />
<glyph unicode="B" horiz-adv-x="1311" d="M331 630L329 849H640Q759 849 816 893T873 1022Q873 1118 817 1160T640 1202H440V0H125V1456H640Q897 1456 1042 1358T1187 1056Q1187 967 1147 890T1018 764T789 713L701 630H331ZM245 0L367 253H688Q801 253 853 304T905
433Q905 494 884 538T819 606T701 630H409L411 849H772L845 762Q980 765 1062 718T1181 593T1218 430Q1218 217 1081 109T688 0H245Z" />
<glyph unicode="C" horiz-adv-x="1342" d="M1278 488Q1269 340 1197 225T997 45T688 -20Q500 -20 364 65T155 309T82 683V772Q82 989 157 1147T369 1391T690 1477Q874 1477 1000 1410T1196 1225T1280 958H966Q957 1086 897 1152T690 1219Q593 1219 529 1172T433
1027T401 774V683Q401 532 429 433T521 286T688 237Q779 237 838 264T928 348T965 488H1278Z" />
<glyph unicode="D" horiz-adv-x="1330" d="M261 0L263 253H576Q691 253 769 304T888 454T928 697V761Q928 906 888 1004T770 1152T578 1202H255V1456H578Q775 1456 925 1368T1161 1124T1246 759V697Q1246 489 1161 332T926 88T576 0H261ZM440 0H125V1456H440V0Z" />
<glyph unicode="E" horiz-adv-x="1151" d="M1108 0H339V253H1108V0ZM440 0H125V1456H440V0ZM1008 626H339V871H1008V626ZM1107 1202H339V1456H1107V1202Z" />
<glyph unicode="F" horiz-adv-x="1121" d="M440 0H125V1456H440V0ZM1011 589H356V842H1011V589ZM1080 1202H356V1456H1080V1202Z" />
<glyph unicode="G" horiz-adv-x="1396" d="M1288 184Q1253 143 1182 96T998 14T725 -20Q536 -20 393 62T171 303T91 686V769Q91 995 167 1153T382 1394T704 1477Q897 1477 1020 1415T1207 1242T1287 989H982Q972 1062 942 1114T856 1195T713 1224Q616 1224 548
1173T445 1022T409 771V686Q409 537 447 436T559 284T744 233Q812 233 857 244T930 270T973 300V542H709V771H1288V184Z" />
<glyph unicode="H" horiz-adv-x="1446" d="M1095 618H347V871H1095V618ZM440 0H125V1456H440V0ZM1320 0H1006V1456H1320V0Z" />
<glyph unicode="I" horiz-adv-x="603" d="M459 0H145V1456H459V0Z" />
<glyph unicode="J" horiz-adv-x="1146" d="M710 1456H1023V451Q1023 305 959 200T783 37T532 -20Q389 -20 278 28T103 177T39 433H355Q355 319 402 276T532 233Q586 233 626 258T688 332T710 451V1456Z" />
<glyph unicode="K" horiz-adv-x="1302" d="M440 0H125V1456H440V0ZM737 728L401 365L344 671L567 986L924 1456H1310L737 728ZM536 663L769 860L1322 0H949L536 663Z" />
<glyph unicode="L" horiz-adv-x="1110" d="M1070 0H339V253H1070V0ZM439 0H125V1456H439V0Z" />
<glyph unicode="M" horiz-adv-x="1795" d="M536 1456L897 417L1257 1456H1522L1003 0H789L271 1456H536ZM391 1456L440 377V0H125V1456H391ZM1668 1456V0H1353V377L1401 1456H1668Z" />
<glyph unicode="N" horiz-adv-x="1445" d="M1318 0H1004L439 937V0H125V1456H439L1005 518V1456H1318V0Z" />
<glyph unicode="O" horiz-adv-x="1415" d="M1331 698Q1331 474 1252 314T1033 67T709 -20Q525 -20 384 66T162 313T82 698V757Q82 981 161 1141T382 1389T707 1476Q891 1476 1031 1389T1251 1142T1331 757V698ZM1014 759Q1014 909 978 1011T873 1165T707 1217Q608
1217 540 1165T437 1011T401 759V698Q401 549 437 447T541 291T709 238Q806 238 874 291T978 446T1014 698V759Z" />
<glyph unicode="P" horiz-adv-x="1326" d="M332 507V760H698Q781 760 832 787T908 861T932 969Q932 1030 908 1083T833 1169T698 1202H440V0H125V1456H698Q871 1456 995 1393T1185 1221T1251 971Q1251 829 1185 725T995 564T698 507H332Z" />
<glyph unicode="Q" horiz-adv-x="1415" d="M1322 -86L1123 -262L731 54L922 230L1322 -86ZM1330 698Q1330 474 1252 314T1033 67T708 -20Q524 -20 383 66T161 313T81 698V757Q81 981 160 1141T381 1389T706 1476Q890 1476 1031 1389T1251 1142T1330 757V698ZM1013
759Q1013 909 977 1011T872 1165T706 1217Q608 1217 539 1165T435 1011T399 759V698Q399 549 435 447T540 291T708 238Q805 238 873 291T977 446T1013 698V759Z" />
<glyph unicode="R" horiz-adv-x="1311" d="M674 1456Q843 1456 964 1406T1151 1258T1216 1016Q1216 896 1177 812T1066 673T899 584L799 527H332L330 781H673Q749 781 800 806T876 879T901 990Q901 1088 846 1145T674 1202H440V0H126V1456H674ZM604 647L936 649L1269
15V0H932L604 647Z" />
<glyph unicode="S" horiz-adv-x="1264" d="M878 384Q878 433 857 469T777 537T601 607Q503 639 415 679T258 774T151 900T112 1068Q112 1191 182 1282T374 1425T655 1476Q817 1476 938 1419T1125 1261T1192 1026H879Q879 1085 854 1130T779 1201T650 1227Q575
1227 525 1205T451 1147T426 1066Q426 1019 459 984T555 920T708 862Q867 814 975 749T1137 596T1192 386Q1192 258 1127 167T942 28T662 -20Q552 -20 447 8T256 96T119 247T68 463H383Q383 398 402 354T458 281T546 241T662 228Q737 228 784 248T855 304T878 384Z"
/>
<glyph unicode="T" horiz-adv-x="1272" d="M790 0H476V1456H790V0ZM1232 1202H40V1456H1232V1202Z" />
<glyph unicode="U" horiz-adv-x="1350" d="M1237 1456V499Q1237 330 1165 214T967 39T676 -20Q511 -20 384 39T185 214T113 499V1456H428V499Q428 405 457 347T542 261T676 233Q755 233 810 260T893 346T922 499V1456H1237Z" />
<glyph unicode="V" horiz-adv-x="1344" d="M991 1456H1340L837 0H606L655 323L991 1456ZM687 323L738 0H507L5 1456H354L687 323Z" />
<glyph unicode="W" horiz-adv-x="1788" d="M763 1456H931L976 1285L670 0H488L476 193L763 1456ZM582 190L553 0H352L32 1456H345L582 190ZM1446 1456H1758L1439 0H1237L1212 195L1446 1456ZM1318 187L1303 0H1121L813 1286L862 1456H1028L1318 187Z" />
<glyph unicode="X" horiz-adv-x="1304" d="M653 963L915 1456H1276L857 734L1286 0H922L653 502L383 0H19L449 734L29 1456H390L653 963Z" />
<glyph unicode="Y" horiz-adv-x="1271" d="M635 810L928 1456H1270L795 527V0H476V527L0 1456H343L635 810Z" />
<glyph unicode="Z" horiz-adv-x="1244" d="M1187 0H153V253H1187V0ZM293 0H72V181L958 1456H1172V1280L293 0ZM1065 1202H70V1456H1065V1202Z" />
<glyph unicode="[" horiz-adv-x="574" d="M557 1466H420V-111H557V-342H117V1698H557V1466Z" />
<glyph unicode="\" horiz-adv-x="868" d="M-4 1456H305L913 -125H603L-4 1456Z" />
<glyph unicode="]" horiz-adv-x="574" d="M14 1698H454V-342H14V-111H152V1466H14V1698Z" />
<glyph unicode="^" horiz-adv-x="901" d="M280 729H43L342 1456H512L460 1202L280 729ZM443 1202L391 1456H561L860 729H623L443 1202Z" />
<glyph unicode="_" horiz-adv-x="914" d="M912 -236H1V0H912V-236Z" />
<glyph unicode="`" horiz-adv-x="683" d="M577 1225H330L51 1536H378L577 1225Z" />
<glyph unicode="a" horiz-adv-x="1097" d="M687 721Q687 794 651 837T536 880Q491 880 458 865T408 823T391 755H89Q89 851 146 929T307 1055T552 1102Q678 1102 777 1060T933 932T990 719V267Q990 171 1001 115T1034 17V0H730Q708 46 698 115T687 255V721ZM728
488H574Q464 488 415 441T366 326Q366 275 402 242T499 209Q562 209 607 233T677 292T701 356L779 226Q763 186 737 143T669 63T570 3T432 -20Q330 -20 246 21T113 136T64 305Q64 475 190 568T565 662H726L728 488Z" />
<glyph unicode="b" horiz-adv-x="1153" d="M410 1536V256L379 0H108V1536H410ZM1090 532Q1090 370 1044 245T905 50T670 -20Q536 -20 452 52T320 249T253 530V554Q273 709 319 833T450 1029T668 1102Q811 1102 904 1031T1044 836T1090 553V532ZM788 553Q788 635
772 704T714 815T591 857Q535 857 495 839T430 787T392 703T378 594V489Q380 409 402 350T470 257T593 224Q673 224 715 263T772 372T788 532V553Z" />
<glyph unicode="c" horiz-adv-x="1069" d="M560 223Q611 223 650 242T710 296T733 379H1017Q1016 262 956 172T794 31T565 -20Q397 -20 286 53T119 250T63 527V554Q63 708 118 832T285 1029T564 1102Q698 1102 799 1051T958 904T1017 675H733Q732 726 713 767T654
834T558 859Q478 859 437 816T380 704T365 554V527Q365 446 379 377T436 265T560 223Z" />
<glyph unicode="d" horiz-adv-x="1155" d="M742 1536H1046V0H773L742 241V1536ZM63 549Q63 714 112 838T256 1032T487 1102Q614 1102 699 1030T834 832T903 547V522Q884 371 835 248T700 53T485 -20Q351 -20 257 51T113 247T63 528V549ZM365 528Q365 444 384 375T446
266T562 225Q634 225 680 257T750 348T778 482V586Q776 651 762 701T722 786T657 839T564 857Q492 857 448 817T385 707T365 549V528Z" />
<glyph unicode="e" horiz-adv-x="1110" d="M613 -20Q442 -20 321 51T135 241T70 504V543Q70 705 131 831T307 1030T579 1102Q736 1102 843 1036T1005 851T1060 570V442H197V645H763V669Q763 725 743 768T683 835T577 859Q503 859 458 817T393 704T372 543V504Q372
421 403 358T492 260T632 224Q709 224 776 252T890 342L1036 175Q985 102 879 41T613 -20Z" />
<glyph unicode="f" horiz-adv-x="737" d="M185 0V1174Q185 1360 293 1458T587 1557Q628 1557 665 1552T738 1537L736 1304Q717 1308 696 1310T648 1312Q572 1312 530 1277T488 1174V0H185ZM701 862H26V1082H701V862Z" />
<glyph unicode="g" horiz-adv-x="1172" d="M1065 1082V39Q1065 -110 999 -214T813 -372T537 -426Q470 -426 394 -408T249 -353T133 -259L265 -74Q313 -128 379 -159T524 -191Q637 -191 699 -132T762 39V829L791 1082H1065ZM65 549Q65 714 118 838T271 1032T506
1102Q615 1102 688 1061T808 944T880 768T922 547V522Q901 371 854 248T722 53T504 -20Q369 -20 271 51T119 247T65 528V549ZM368 528Q368 444 391 375T461 266T581 225Q658 225 705 257T777 348T805 482V586Q803 651 789 701T748 786T681 839T583 857Q511 857
463 817T392 707T368 549V528Z" />
<glyph unicode="h" horiz-adv-x="1149" d="M403 0H100V1536H403V0ZM279 573Q279 727 329 846T472 1033T687 1102Q794 1102 874 1061T1000 927T1046 679V0H743V681Q743 749 724 787T667 841T575 857Q515 857 474 837T408 778T371 689T360 577L279 573Z" />
<glyph unicode="i" horiz-adv-x="549" d="M426 0H123V1082H426V0ZM105 1361Q105 1429 151 1472T274 1516Q351 1516 396 1473T442 1361Q442 1294 397 1250T274 1206Q197 1206 151 1250T105 1361Z" />
<glyph unicode="j" horiz-adv-x="538" d="M428 1082V-53Q428 -239 329 -338T50 -437Q12 -437 -24 -433T-98 -420L-99 -181Q-75 -185 -53 -187T-6 -190Q57 -190 91 -157T125 -53V1082H428ZM102 1361Q102 1429 147 1472T270 1516Q347 1516 393 1473T439 1361Q439
1294 393 1250T270 1206Q193 1206 148 1250T102 1361Z" />
<glyph unicode="k" horiz-adv-x="1101" d="M410 0H108V1537H410V0ZM625 539L369 283L258 500L461 762L729 1082H1092L625 539ZM468 494L678 673L1124 0H777L468 494Z" />
<glyph unicode="l" horiz-adv-x="549" d="M426 0H123V1536H426V0Z" />
<glyph unicode="m" horiz-adv-x="1770" d="M410 0H108V1082H392L410 856V0ZM285 573Q285 727 333 846T475 1033T710 1102Q854 1102 945 1014T1036 722V0H734V685Q734 754 716 791T662 843T578 857Q525 857 485 837T419 778T381 689T368 577L285 573ZM901 585Q900
732 946 849T1086 1034T1317 1102Q1421 1102 1499 1062T1620 931T1663 687V0H1359V688Q1359 758 1341 794T1288 843T1205 857Q1155 857 1119 838T1058 784T1021 701T1008 597L901 585Z" />
<glyph unicode="n" horiz-adv-x="1150" d="M403 0H101V1082H385L403 851V0ZM279 573Q279 737 332 855T481 1038T704 1102Q806 1102 882 1062T1002 932T1046 686V0H743V688Q743 755 724 791T667 842T576 857Q521 857 481 837T414 778T374 689T361 577L279 573Z" />
<glyph unicode="o" horiz-adv-x="1158" d="M63 551Q63 709 123 833T298 1030T577 1102Q743 1102 858 1030T1033 834T1093 551V530Q1093 373 1034 248T859 52T579 -20Q414 -20 299 51T123 248T63 530V551ZM366 530Q366 445 386 375T453 264T579 223Q657 223 703
264T770 375T791 530V551Q791 634 771 704T704 817T577 859Q499 859 453 817T386 705T366 551V530Z" />
<glyph unicode="p" horiz-adv-x="1153" d="M410 -416H108V1082H388L410 874V-416ZM1090 532Q1090 375 1042 250T900 53T669 -20Q536 -20 451 52T318 248T250 520V551Q270 710 317 834T450 1030T668 1102Q805 1102 899 1034T1041 842T1090 553V532ZM788 553Q788
641 769 709T705 817T588 857Q532 857 493 840T428 788T390 705T375 590V480Q379 406 400 348T468 257T590 223Q664 223 707 265T769 377T788 532V553Z" />
<glyph unicode="q" horiz-adv-x="1157" d="M742 859L781 1082H1045V-416H742V859ZM63 551Q63 716 112 840T256 1033T487 1102Q620 1102 705 1030T837 833T904 549V524Q884 373 837 250T704 53T485 -20Q350 -20 256 52T112 248T63 530V551ZM365 530Q365 446 384
376T446 265T563 223Q640 223 686 256T754 349T780 485V589Q778 653 766 703T727 788T661 841T565 859Q493 859 449 819T385 709T365 551V530Z" />
<glyph unicode="r" horiz-adv-x="754" d="M410 0H108V1082H392L410 833V0ZM726 798Q704 801 674 803T620 806Q541 806 490 782T414 709T387 590L328 616Q328 757 364 867T470 1039T640 1102Q663 1102 688 1099T730 1089L726 798Z" />
<glyph unicode="s" horiz-adv-x="1054" d="M688 302Q688 332 671 354T606 395T470 433Q361 457 274 498T136 604T86 763Q86 854 138 931T287 1055T521 1102Q663 1102 766 1057T924 933T979 752H677Q677 813 640 851T520 890Q476 890 443 875T393 836T375 778Q375
748 394 725T456 685T571 655Q686 633 779 595T927 490T982 313Q982 217 926 142T766 23T522 -20Q369 -20 264 35T105 174T51 347H337Q340 293 366 259T435 209T529 193Q581 193 616 206T670 244T688 302Z" />
<glyph unicode="t" horiz-adv-x="695" d="M649 862H10V1082H649V862ZM466 1349V338Q466 294 477 270T514 237T576 228Q603 228 624 230T660 235L659 7Q622 -6 579 -13T481 -20Q384 -20 313 12T203 116T164 304V1349H466Z" />
<glyph unicode="u" horiz-adv-x="1149" d="M743 1082H1045V0H762L743 261V1082ZM864 487Q864 341 820 227T686 46T460 -20Q300 -20 201 73T101 382V1082H403V380Q403 325 421 291T473 241T550 225Q637 225 686 259T756 352T777 485L864 487Z" />
<glyph unicode="v" horiz-adv-x="1041" d="M711 1082H1027L665 0H474L480 223L711 1082ZM559 222L564 0H373L10 1082H328L559 222Z" />
<glyph unicode="w" horiz-adv-x="1501" d="M640 1082H830L772 743L550 0H391L417 294L640 1082ZM473 296L484 0H298L26 1082H317L473 296ZM1180 1082H1471L1200 0H1014L1027 310L1180 1082ZM1080 298L1107 0H947L725 741L669 1082H857L1080 298Z" />
<glyph unicode="x" horiz-adv-x="1046" d="M526 769L700 1082H1021L719 553L1034 0H712L526 332L343 0H19L335 553L33 1082H356L526 769Z" />
<glyph unicode="y" horiz-adv-x="1035" d="M711 1082H1034L602 -162Q588 -202 564 -249T501 -340T401 -410T253 -437Q225 -437 205 -435T165 -429T122 -418V-190Q133 -190 144 -190T166 -191Q251 -191 290 -165T349 -82L428 125L711 1082ZM551 317L592 -16L388
-30L1 1082H326L551 317Z" />
<glyph unicode="z" horiz-adv-x="1046" d="M976 0H153V243H976V0ZM275 0H73V181L757 1082H961V906L275 0ZM856 839H89V1082H856V839Z" />
<glyph unicode="{" horiz-adv-x="675" d="M639 1430Q552 1399 521 1318T490 1132V930Q490 828 445 746T302 615T47 566V727Q139 727 179 782T220 930V1132Q220 1237 253 1328T365 1489T581 1597L639 1430ZM581 -358Q444 -319 365 -250T253 -90T220 107V310Q220
402 180 457T47 512V673Q204 673 301 625T444 494T490 310V107Q490 3 521 -78T639 -191L581 -358Z" />
<glyph unicode="|" horiz-adv-x="522" d="M353 -270H173V1456H353V-270Z" />
<glyph unicode="}" horiz-adv-x="675" d="M94 1597Q233 1559 311 1490T422 1329T455 1132V930Q455 837 495 782T628 727V569Q471 569 374 617T231 746T185 930V1132Q185 1237 155 1318T36 1430L94 1597ZM36 -191Q124 -159 154 -78T185 107V310Q185 412 230 493T373
623T628 671V512Q536 512 496 457T455 310V107Q455 2 423 -89T312 -250T94 -358L36 -191Z" />
<glyph unicode="~" horiz-adv-x="1321" d="M1217 796Q1217 666 1174 571T1056 424T882 372Q802 372 739 403T605 503Q565 543 529 564T452 585Q395 585 361 535T326 410L103 413Q103 544 145 637T263 781T435 831Q515 831 581 799T715 700Q756 660 792 639T866
618Q923 618 959 670T995 797L1217 796Z" />
<glyph unicode="&#xa0;" horiz-adv-x="511" />
<glyph unicode="&#xa1;" horiz-adv-x="589" d="M171 634H421L456 -370H135L171 634ZM464 943Q464 876 419 830T296 783Q219 783 174 829T128 943Q128 1011 173 1056T296 1102Q373 1102 418 1057T464 943Z" />
<glyph unicode="&#xa2;" horiz-adv-x="1185" d="M703 1025H500V1318H703V1025ZM703 -245H500V47H703V-245ZM595 223Q647 223 685 242T746 296T769 379H1052Q1052 262 992 172T830 31T601 -20Q432 -20 321 53T155 250T99 527V554Q99 708 154 832T320 1029T599 1102Q734
1102 835 1051T994 904T1052 675H769Q768 726 748 767T690 834T593 859Q514 859 472 816T416 704T401 554V527Q401 446 415 377T471 265T595 223Z" />
<glyph unicode="&#xa3;" horiz-adv-x="1221" d="M103 0V253H1166V0H103ZM100 571V816H877V571H100ZM584 443Q585 344 542 276T393 161L197 253Q228 261 242 287T261 350T266 424L247 1039Q247 1177 304 1274T463 1423T702 1475Q924 1475 1042 1360T1161 1055H862Q862
1118 841 1154T783 1206T703 1222Q641 1222 601 1177T560 1039L584 443Z" />
<glyph unicode="&#xa4;" horiz-adv-x="1413" d="M302 608Q302 517 333 438T420 299T550 207T709 173Q793 173 867 206T997 299T1084 437T1116 608Q1116 700 1085 778T997 916T867 1008T709 1041Q624 1041 550 1009T421 917T334 779T302 608ZM113 608Q113 741 159
855T288 1054T478 1186T709 1234Q832 1234 939 1187T1129 1054T1257 855T1303 608Q1303 475 1257 361T1129 162T940 28T709 -20Q586 -20 478 28T288 161T160 361T113 608ZM1142 912L999 1059L1201 1265L1344 1118L1142 912ZM222 -26L78 120L280 325L424 180L222
-26ZM999 179L1142 325L1344 120L1201 -27L999 179ZM78 1118L222 1264L424 1058L280 912L78 1118Z" />
<glyph unicode="&#xa5;" horiz-adv-x="1101" d="M987 563H87V743H987V563ZM987 274H87V453H987V274ZM766 1456H1091L689 551H517L477 715L766 1456ZM630 706L586 551H414L10 1456H337L630 706ZM703 0H390V759H703V0Z" />
<glyph unicode="&#xa6;" horiz-adv-x="520" d="M126 -270V526H395V-270H126ZM395 698H126V1456H395V698Z" />
<glyph unicode="&#xa7;" horiz-adv-x="1291" d="M677 288Q777 288 832 335T887 456Q887 501 861 533T773 595T600 657Q450 699 342 751T176 883T118 1093Q118 1209 182 1295T365 1428T642 1476Q885 1476 1024 1366T1164 1050H862Q862 1101 837 1142T764 1208T642
1232Q525 1232 473 1192T421 1095Q421 1049 443 1019T527 965T703 910Q857 871 964 819T1128 687T1185 487Q1185 316 1047 229T677 142V288ZM585 728Q486 728 441 682T395 565Q395 515 417 483T501 424T677 363Q831 322 939 270T1103 137T1160 -73Q1160 -255 1018
-351T640 -448Q538 -448 440 -428T264 -360T139 -232T92 -32H395Q395 -85 416 -118T472 -170T551 -196T640 -204Q746 -204 802 -169T858 -74Q858 -32 833 -3T746 53T572 111Q423 151 316 202T151 333T93 532Q93 699 227 789T585 879V728Z" />
<glyph unicode="&#xa8;" horiz-adv-x="967" d="M93 1365Q93 1419 133 1457T235 1495Q297 1495 337 1457T378 1365Q378 1310 338 1273T235 1235Q174 1235 134 1272T93 1365ZM587 1364Q587 1419 627 1456T729 1494Q790 1494 830 1457T871 1364Q871 1309 831 1272T729
1234Q668 1234 628 1271T587 1364Z" />
<glyph unicode="&#xa9;" horiz-adv-x="1606" d="M1117 596Q1117 439 1027 361T781 282Q620 282 526 389T432 669V789Q432 961 526 1068T781 1176Q937 1176 1027 1097T1118 861H960Q960 957 915 998T781 1039Q718 1039 675 1007T611 919T589 790V669Q589 557 637
488T781 419Q869 419 914 459T959 596H1117ZM209 729Q209 597 254 484T380 286T567 154T795 106Q917 106 1023 153T1209 285T1335 483T1381 729Q1381 861 1336 974T1210 1171T1023 1303T795 1350Q674 1350 568 1303T381 1172T255 974T209 729ZM86 729Q86 888 141
1024T294 1261T520 1419T796 1476Q943 1476 1071 1420T1297 1262T1450 1024T1505 729Q1505 570 1450 434T1298 196T1072 37T796 -20Q649 -20 521 37T294 196T141 434T86 729Z" />
<glyph unicode="&#xaa;" horiz-adv-x="909" d="M579 1201Q579 1262 551 1294T465 1326Q401 1326 365 1301T328 1229L153 1243Q153 1344 238 1410T464 1476Q595 1476 675 1407T756 1200V886Q756 837 762 793T782 705H603Q590 740 585 780T579 861V1201ZM623 1032H479Q393
1032 354 1000T314 923Q314 883 342 860T429 837Q469 837 511 855T581 900T609 951L627 833Q612 801 581 768T502 713T385 691Q265 691 201 753T136 919Q136 1029 220 1089T478 1150H622L623 1032Z" />
<glyph unicode="&#xab;" horiz-adv-x="1031" d="M559 518L328 519V532L607 923H799L559 518ZM799 123H607L328 513V526L559 527L799 123ZM696 518L465 519V532L744 923H936L696 518ZM936 123H744L465 513V526L696 527L936 123Z" />
<glyph unicode="&#xac;" horiz-adv-x="1129" d="M962 633H126V806H962V633ZM962 373H759V729H962V373Z" />
<glyph unicode="&#xad;" horiz-adv-x="600" d="M690 502H119V746H690V502Z" />
<glyph unicode="&#xae;" horiz-adv-x="1606" d="M606 652L604 788H785Q853 789 904 818T956 903Q956 975 918 1003T781 1032H652V316H500V1166H781Q930 1166 1018 1100T1107 903Q1107 822 1050 770T887 688Q884 688 881 681T874 673Q857 663 853 659T844 653T819
652H606ZM831 765Q988 765 1046 695T1104 515V459Q1104 422 1108 389T1121 332V316H965Q955 342 954 390T952 460V514Q952 584 920 618T809 652L831 765ZM209 729Q209 597 254 484T380 286T567 154T796 106Q917 106 1023 153T1209 285T1336 483T1382 729Q1382 861
1336 974T1210 1171T1023 1303T796 1350Q674 1350 568 1303T381 1172T255 974T209 729ZM86 729Q86 888 141 1024T294 1261T520 1419T796 1476Q943 1476 1071 1420T1297 1262T1450 1024T1506 729Q1506 570 1451 434T1297 196T1071 37T796 -20Q649 -20 521 37T294
196T141 434T86 729Z" />
<glyph unicode="&#xaf;" horiz-adv-x="1037" d="M864 1285H171V1456H864V1285Z" />
<glyph unicode="&#xb0;" horiz-adv-x="800" d="M126 1199Q126 1274 163 1337T263 1438T401 1476Q475 1476 536 1439T633 1338T670 1199Q670 1123 634 1061T536 961T401 924Q326 924 264 961T164 1060T126 1199ZM276 1198Q276 1145 313 1110T401 1075Q451 1075
485 1110T520 1198Q520 1253 486 1289T401 1325Q350 1325 313 1289T276 1198Z" />
<glyph unicode="&#xb1;" horiz-adv-x="1102" d="M1005 701H89V954H1005V701ZM682 343H417V1288H682V343ZM977 1H111V248H977V1Z" />
<glyph unicode="&#xb2;" horiz-adv-x="765" d="M695 667H73V810L359 1065Q413 1111 437 1153T462 1218Q462 1255 439 1276T371 1298Q318 1298 293 1266T267 1191H55Q55 1267 92 1330T198 1430T361 1468Q510 1468 591 1403T673 1218Q673 1159 650 1112T578 1019T454
915L350 836H695V667Z" />
<glyph unicode="&#xb3;" horiz-adv-x="765" d="M363 1139Q418 1139 444 1162T471 1225Q471 1251 449 1274T369 1298Q330 1298 301 1284T272 1242H60Q60 1317 102 1367T214 1442T363 1468Q505 1468 593 1410T682 1241Q682 1179 645 1136T543 1071T398 1048H274V1139H363ZM274
1088H398Q485 1088 552 1070T658 1009T697 889Q697 778 601 717T362 656Q289 656 216 680T95 759T47 905H260Q260 875 291 851T376 826Q434 826 459 851T485 910Q485 959 453 979T363 1000H274V1088Z" />
<glyph unicode="&#xb4;" horiz-adv-x="685" d="M296 1536H623L344 1225H99L296 1536Z" />
<glyph unicode="&#xb5;" horiz-adv-x="1149" d="M101 588H351L386 -416H66L101 588ZM743 1082H1045V0H762L743 261V1082ZM864 487Q864 341 820 227T686 46T460 -20Q300 -20 201 73T101 382V1082H403V380Q403 325 421 291T473 241T550 225Q637 225 686 259T756
352T777 485L864 487Z" />
<glyph unicode="&#xb6;" horiz-adv-x="1004" d="M651 0V520H568Q409 520 300 580T133 747T76 988Q76 1122 133 1228T299 1395T568 1456H875V0H651Z" />
<glyph unicode="&#xb7;" horiz-adv-x="627" d="M139 694Q139 763 185 809T308 855Q386 855 432 809T478 694Q478 627 432 581T308 534Q232 534 186 580T139 694Z" />
<glyph unicode="&#xb8;" horiz-adv-x="553" d="M354 8L342 -50Q398 -60 445 -98T492 -223Q492 -333 402 -399T136 -465L129 -292Q161 -292 184 -284T222 -258T236 -212Q236 -172 203 -157T96 -136L127 8H354Z" />
<glyph unicode="&#xb9;" horiz-adv-x="765" d="M533 667H323V1208L138 1169V1332L514 1453H533V667Z" />
<glyph unicode="&#xba;" horiz-adv-x="937" d="M118 1121Q118 1276 212 1376T465 1476Q626 1476 719 1376T813 1121V1044Q813 889 720 790T467 690Q306 690 212 789T118 1044V1121ZM296 1044Q296 956 338 897T467 838Q552 838 593 897T635 1044V1121Q635 1208
593 1267T465 1326Q380 1326 338 1267T296 1121V1044Z" />
<glyph unicode="&#xbb;" horiz-adv-x="1031" d="M323 526L554 525V512L276 121H83L323 526ZM276 921L554 531V518L323 517L83 921H276ZM721 526L952 525V512L674 121H481L721 526ZM674 921L952 531V518L721 517L481 921H674Z" />
<glyph unicode="&#xbc;" horiz-adv-x="1538" d="M542 108L396 186L1107 1324L1253 1246L542 108ZM533 546H323V1087L138 1048V1211L514 1332H533V546ZM1479 158H840L827 298L1182 789H1348L1168 510L1028 330H1479V158ZM1394 0H1182V789H1394V0Z" />
<glyph unicode="&#xbd;" horiz-adv-x="1643" d="M532 108L386 186L1097 1324L1243 1246L532 108ZM533 546H323V1087L138 1048V1211L514 1332H533V546ZM1573 0H951V143L1237 398Q1291 444 1315 486T1340 551Q1340 588 1317 609T1249 631Q1196 631 1171 599T1145
524H933Q933 600 970 663T1076 763T1239 801Q1388 801 1469 736T1551 551Q1551 492 1528 445T1456 352T1332 248L1228 169H1573V0Z" />
<glyph unicode="&#xbe;" horiz-adv-x="1628" d="M363 1011Q418 1011 444 1034T471 1097Q471 1123 449 1146T369 1170Q330 1170 301 1156T272 1114H60Q60 1189 102 1239T214 1314T363 1340Q505 1340 593 1282T682 1113Q682 1051 645 1008T543 943T398 920H274V1011H363ZM274
960H398Q485 960 552 942T658 881T697 761Q697 650 601 589T362 528Q289 528 216 552T95 631T47 777H260Q260 747 291 723T376 698Q434 698 459 723T485 782Q485 831 453 851T363 872H274V960ZM633 108L487 186L1198 1324L1344 1246L633 108ZM1569 158H930L917
298L1272 789H1438L1258 510L1118 330H1569V158ZM1484 0H1272V789H1484V0Z" />
<glyph unicode="&#xbf;" horiz-adv-x="1026" d="M676 639Q676 549 663 484T619 365T530 261Q486 219 450 182T394 103T373 10Q373 -67 412 -103T518 -139Q583 -139 630 -100T680 27H983Q981 -115 920 -206T756 -341T523 -385Q310 -385 190 -284T70 8Q70 95 106
163T199 290T320 409Q358 443 376 476T402 548T410 639H676ZM715 944Q715 877 670 831T547 785Q471 785 425 831T378 944Q378 1012 424 1057T547 1103Q624 1103 669 1058T715 944Z" />
<glyph unicode="&#xc0;" horiz-adv-x="1385" d="M340 0H5L546 1456H758L728 1180L340 0ZM657 1180L624 1456H837L1381 0H1046L657 1180ZM1036 290H264V544H1036V290ZM861 1535H614L335 1846H663L861 1535Z" />
<glyph unicode="&#xc1;" horiz-adv-x="1385" d="M340 0H5L546 1456H758L728 1180L340 0ZM657 1180L624 1456H837L1381 0H1046L657 1180ZM1036 290H264V544H1036V290ZM742 1846H1070L791 1535H546L742 1846Z" />
<glyph unicode="&#xc2;" horiz-adv-x="1385" d="M340 0H5L546 1456H758L728 1180L340 0ZM657 1180L624 1456H837L1381 0H1046L657 1180ZM1036 290H264V544H1036V290ZM1090 1566V1554H851L695 1695L542 1554H307V1569L609 1847H783L1090 1566Z" />
<glyph unicode="&#xc3;" horiz-adv-x="1385" d="M340 0H5L546 1456H758L728 1180L340 0ZM657 1180L624 1456H837L1381 0H1046L657 1180ZM1036 290H264V544H1036V290ZM1074 1833Q1074 1760 1045 1699T964 1601T845 1564Q798 1564 764 1576T700 1606T640 1636T571
1649Q536 1649 513 1625T489 1555L315 1565Q315 1637 344 1698T425 1798T543 1836Q582 1836 616 1823T683 1794T747 1764T818 1751Q852 1751 877 1775T902 1845L1074 1833Z" />
<glyph unicode="&#xc4;" horiz-adv-x="1385" d="M340 0H5L546 1456H758L728 1180L340 0ZM657 1180L624 1456H837L1381 0H1046L657 1180ZM1036 290H264V544H1036V290ZM305 1675Q305 1729 345 1767T447 1805Q509 1805 549 1767T590 1675Q590 1620 550 1583T447 1545Q386
1545 346 1582T305 1675ZM799 1674Q799 1729 839 1766T941 1804Q1002 1804 1042 1767T1083 1674Q1083 1619 1043 1582T941 1544Q880 1544 840 1581T799 1674Z" />
<glyph unicode="&#xc5;" horiz-adv-x="1385" d="M340 0H5L546 1456H758L728 1180L340 0ZM657 1180L624 1456H837L1381 0H1046L657 1180ZM1036 290H264V544H1036V290ZM473 1730Q473 1815 536 1875T697 1936Q794 1936 857 1876T921 1730Q921 1647 858 1588T697 1529Q600
1529 537 1588T473 1730ZM590 1730Q590 1687 619 1656T697 1624Q746 1624 775 1655T804 1730Q804 1774 775 1806T697 1839Q648 1839 619 1807T590 1730Z" />
<glyph unicode="&#xc6;" horiz-adv-x="1928" d="M358 0H4L779 1456H970L997 1296L358 0ZM1100 331H346V587H1100V331ZM1865 0H1133V246H1865V0ZM1267 0H965L904 1456H1206L1267 0ZM1723 623H1092V870H1723V623ZM1804 1210H1072V1456H1804V1210Z" />
<glyph unicode="&#xc7;" horiz-adv-x="1342" d="M1278 488Q1269 340 1197 225T997 45T688 -20Q500 -20 364 65T155 309T82 683V772Q82 989 157 1147T369 1391T690 1477Q874 1477 1000 1410T1196 1225T1280 958H966Q957 1086 897 1152T690 1219Q593 1219 529 1172T433
1027T401 774V683Q401 532 429 433T521 286T688 237Q779 237 838 264T928 348T965 488H1278ZM803 6L791 -52Q847 -62 894 -100T941 -225Q941 -335 851 -401T585 -467L578 -294Q610 -294 633 -286T671 -260T685 -214Q685 -174 652 -159T545 -138L576 6H803Z" />
<glyph unicode="&#xc8;" horiz-adv-x="1151" d="M1108 0H339V253H1108V0ZM440 0H125V1456H440V0ZM1008 626H339V871H1008V626ZM1107 1202H339V1456H1107V1202ZM803 1538H556L277 1849H605L803 1538Z" />
<glyph unicode="&#xc9;" horiz-adv-x="1151" d="M1108 0H339V253H1108V0ZM440 0H125V1456H440V0ZM1008 626H339V871H1008V626ZM1107 1202H339V1456H1107V1202ZM684 1849H1012L733 1538H488L684 1849Z" />
<glyph unicode="&#xca;" horiz-adv-x="1151" d="M1108 0H339V253H1108V0ZM440 0H125V1456H440V0ZM1008 626H339V871H1008V626ZM1107 1202H339V1456H1107V1202ZM1032 1569V1557H793L637 1698L484 1557H249V1572L551 1850H725L1032 1569Z" />
<glyph unicode="&#xcb;" horiz-adv-x="1151" d="M1108 0H339V253H1108V0ZM440 0H125V1456H440V0ZM1008 626H339V871H1008V626ZM1107 1202H339V1456H1107V1202ZM247 1678Q247 1732 287 1770T389 1808Q451 1808 491 1770T532 1678Q532 1623 492 1586T389 1548Q328
1548 288 1585T247 1678ZM741 1677Q741 1732 781 1769T883 1807Q944 1807 984 1770T1025 1677Q1025 1622 985 1585T883 1547Q822 1547 782 1584T741 1677Z" />
<glyph unicode="&#xcc;" horiz-adv-x="603" d="M459 0H145V1456H459V0ZM467 1538H220L-59 1849H269L467 1538Z" />
<glyph unicode="&#xcd;" horiz-adv-x="603" d="M459 0H145V1456H459V0ZM347 1849H675L396 1538H151L347 1849Z" />
<glyph unicode="&#xce;" horiz-adv-x="603" d="M459 0H145V1456H459V0ZM695 1569V1557H456L300 1698L147 1557H-88V1572L214 1850H388L695 1569Z" />
<glyph unicode="&#xcf;" horiz-adv-x="603" d="M459 0H145V1456H459V0ZM-90 1678Q-90 1732 -50 1770T52 1808Q114 1808 154 1770T195 1678Q195 1623 155 1586T52 1548Q-9 1548 -49 1585T-90 1678ZM404 1677Q404 1732 444 1769T546 1807Q607 1807 647 1770T688
1677Q688 1622 648 1585T546 1547Q485 1547 445 1584T404 1677Z" />
<glyph unicode="&#xd0;" horiz-adv-x="1330" d="M261 0L263 253H576Q691 253 769 304T888 454T928 697V761Q928 906 888 1004T770 1152T578 1202H255V1456H578Q775 1456 925 1368T1161 1124T1246 759V697Q1246 489 1161 332T926 88T576 0H261ZM440 0H125V1456H440V0ZM685
640H-23V827H685V640Z" />
<glyph unicode="&#xd1;" horiz-adv-x="1445" d="M1318 0H1004L439 937V0H125V1456H439L1005 518V1456H1318V0ZM1105 1833Q1105 1760 1076 1699T995 1601T876 1564Q829 1564 795 1576T731 1606T671 1636T602 1649Q567 1649 544 1625T520 1555L346 1565Q346 1637
375 1698T456 1798T574 1836Q613 1836 647 1823T714 1794T778 1764T849 1751Q883 1751 908 1775T933 1845L1105 1833Z" />
<glyph unicode="&#xd2;" horiz-adv-x="1415" d="M1331 698Q1331 474 1252 314T1033 67T709 -20Q525 -20 384 66T162 313T82 698V757Q82 981 161 1141T382 1389T707 1476Q891 1476 1031 1389T1251 1142T1331 757V698ZM1014 759Q1014 909 978 1011T873 1165T707
1217Q608 1217 540 1165T437 1011T401 759V698Q401 549 437 447T541 291T709 238Q806 238 874 291T978 446T1014 698V759ZM873 1535H626L347 1846H675L873 1535Z" />
<glyph unicode="&#xd3;" horiz-adv-x="1415" d="M1331 698Q1331 474 1252 314T1033 67T709 -20Q525 -20 384 66T162 313T82 698V757Q82 981 161 1141T382 1389T707 1476Q891 1476 1031 1389T1251 1142T1331 757V698ZM1014 759Q1014 909 978 1011T873 1165T707
1217Q608 1217 540 1165T437 1011T401 759V698Q401 549 437 447T541 291T709 238Q806 238 874 291T978 446T1014 698V759ZM753 1846H1081L802 1535H557L753 1846Z" />
<glyph unicode="&#xd4;" horiz-adv-x="1415" d="M1331 698Q1331 474 1252 314T1033 67T709 -20Q525 -20 384 66T162 313T82 698V757Q82 981 161 1141T382 1389T707 1476Q891 1476 1031 1389T1251 1142T1331 757V698ZM1014 759Q1014 909 978 1011T873 1165T707
1217Q608 1217 540 1165T437 1011T401 759V698Q401 549 437 447T541 291T709 238Q806 238 874 291T978 446T1014 698V759ZM1101 1566V1554H862L706 1695L553 1554H318V1569L620 1847H794L1101 1566Z" />
<glyph unicode="&#xd5;" horiz-adv-x="1415" d="M1331 698Q1331 474 1252 314T1033 67T709 -20Q525 -20 384 66T162 313T82 698V757Q82 981 161 1141T382 1389T707 1476Q891 1476 1031 1389T1251 1142T1331 757V698ZM1014 759Q1014 909 978 1011T873 1165T707
1217Q608 1217 540 1165T437 1011T401 759V698Q401 549 437 447T541 291T709 238Q806 238 874 291T978 446T1014 698V759ZM1086 1833Q1086 1760 1057 1699T976 1601T857 1564Q810 1564 776 1576T712 1606T652 1636T583 1649Q548 1649 525 1625T501 1555L327 1565Q327
1637 356 1698T437 1798T555 1836Q594 1836 628 1823T695 1794T759 1764T830 1751Q864 1751 889 1775T914 1845L1086 1833Z" />
<glyph unicode="&#xd6;" horiz-adv-x="1415" d="M1331 698Q1331 474 1252 314T1033 67T709 -20Q525 -20 384 66T162 313T82 698V757Q82 981 161 1141T382 1389T707 1476Q891 1476 1031 1389T1251 1142T1331 757V698ZM1014 759Q1014 909 978 1011T873 1165T707
1217Q608 1217 540 1165T437 1011T401 759V698Q401 549 437 447T541 291T709 238Q806 238 874 291T978 446T1014 698V759ZM317 1675Q317 1729 357 1767T459 1805Q521 1805 561 1767T602 1675Q602 1620 562 1583T459 1545Q398 1545 358 1582T317 1675ZM811 1674Q811
1729 851 1766T953 1804Q1014 1804 1054 1767T1095 1674Q1095 1619 1055 1582T953 1544Q892 1544 852 1581T811 1674Z" />
<glyph unicode="&#xd7;" horiz-adv-x="1088" d="M62 382L841 1176L1019 1001L240 207L62 382ZM62 1001L239 1176L1018 382L841 207L62 1001Z" />
<glyph unicode="&#xd8;" horiz-adv-x="1412" d="M339 -96H145L1094 1519H1287L339 -96ZM1339 698Q1339 474 1260 314T1041 67T717 -20Q533 -20 392 66T170 313T90 698V757Q90 981 169 1141T390 1389T715 1476Q899 1476 1039 1389T1259 1142T1339 757V698ZM1022
759Q1022 909 986 1011T881 1165T715 1217Q616 1217 548 1165T445 1011T409 759V698Q409 549 445 447T549 291T717 238Q814 238 882 291T986 446T1022 698V759Z" />
<glyph unicode="&#xd9;" horiz-adv-x="1350" d="M1237 1456V499Q1237 330 1165 214T967 39T676 -20Q511 -20 384 39T185 214T113 499V1456H428V499Q428 405 457 347T542 261T676 233Q755 233 810 260T893 346T922 499V1456H1237ZM837 1535H590L311 1846H639L837 1535Z" />
<glyph unicode="&#xda;" horiz-adv-x="1350" d="M1237 1456V499Q1237 330 1165 214T967 39T676 -20Q511 -20 384 39T185 214T113 499V1456H428V499Q428 405 457 347T542 261T676 233Q755 233 810 260T893 346T922 499V1456H1237ZM717 1846H1045L766 1535H521L717 1846Z" />
<glyph unicode="&#xdb;" horiz-adv-x="1350" d="M1237 1456V499Q1237 330 1165 214T967 39T676 -20Q511 -20 384 39T185 214T113 499V1456H428V499Q428 405 457 347T542 261T676 233Q755 233 810 260T893 346T922 499V1456H1237ZM1065 1566V1554H826L670 1695L517
1554H282V1569L584 1847H758L1065 1566Z" />
<glyph unicode="&#xdc;" horiz-adv-x="1350" d="M1237 1456V499Q1237 330 1165 214T967 39T676 -20Q511 -20 384 39T185 214T113 499V1456H428V499Q428 405 457 347T542 261T676 233Q755 233 810 260T893 346T922 499V1456H1237ZM281 1675Q281 1729 321 1767T423
1805Q485 1805 525 1767T566 1675Q566 1620 526 1583T423 1545Q362 1545 322 1582T281 1675ZM775 1674Q775 1729 815 1766T917 1804Q978 1804 1018 1767T1059 1674Q1059 1619 1019 1582T917 1544Q856 1544 816 1581T775 1674Z" />
<glyph unicode="&#xdd;" horiz-adv-x="1271" d="M635 810L928 1456H1270L795 527V0H476V527L0 1456H343L635 810ZM683 1846H1011L732 1535H487L683 1846Z" />
<glyph unicode="&#xde;" horiz-adv-x="1251" d="M432 1456V0H129V1456H432ZM647 1192Q823 1192 944 1134T1127 974T1190 738Q1190 606 1128 504T944 343T647 284H391V527H647Q733 527 786 556T862 634T886 736Q886 791 863 840T786 919T647 949H432L232 1192H647Z" />
<glyph unicode="&#xdf;" horiz-adv-x="1301" d="M437 0H135V1100Q135 1328 265 1444T619 1561Q736 1561 833 1519T988 1394T1046 1186Q1046 1113 1030 1070T994 995T957 927T941 832Q941 793 971 757T1045 682T1133 597T1206 493T1236 360Q1236 240 1184 155T1031
25T784 -20Q733 -20 680 -13T581 6T507 34L563 273Q594 257 650 241T779 224Q829 224 863 239T916 284T935 354Q935 403 905 440T831 513T743 589T669 685T639 817Q639 885 655 927T693 1003T730 1075T747 1171Q747 1216 727 1249T673 1300T594 1318Q522 1318 480
1269T437 1095V0Z" />
<glyph unicode="&#xe0;" horiz-adv-x="1097" d="M687 721Q687 794 651 837T536 880Q491 880 458 865T408 823T391 755H89Q89 851 146 929T307 1055T552 1102Q678 1102 777 1060T933 932T990 719V267Q990 171 1001 115T1034 17V0H730Q708 46 698 115T687 255V721ZM728
488H574Q464 488 415 441T366 326Q366 275 402 242T499 209Q562 209 607 233T677 292T701 356L779 226Q763 186 737 143T669 63T570 3T432 -20Q330 -20 246 21T113 136T64 305Q64 475 190 568T565 662H726L728 488ZM714 1225H467L188 1536H516L714 1225Z" />
<glyph unicode="&#xe1;" horiz-adv-x="1097" d="M687 721Q687 794 651 837T536 880Q491 880 458 865T408 823T391 755H89Q89 851 146 929T307 1055T552 1102Q678 1102 777 1060T933 932T990 719V267Q990 171 1001 115T1034 17V0H730Q708 46 698 115T687 255V721ZM728
488H574Q464 488 415 441T366 326Q366 275 402 242T499 209Q562 209 607 233T677 292T701 356L779 226Q763 186 737 143T669 63T570 3T432 -20Q330 -20 246 21T113 136T64 305Q64 475 190 568T565 662H726L728 488ZM595 1536H923L644 1225H399L595 1536Z" />
<glyph unicode="&#xe2;" horiz-adv-x="1097" d="M687 721Q687 794 651 837T536 880Q491 880 458 865T408 823T391 755H89Q89 851 146 929T307 1055T552 1102Q678 1102 777 1060T933 932T990 719V267Q990 171 1001 115T1034 17V0H730Q708 46 698 115T687 255V721ZM728
488H574Q464 488 415 441T366 326Q366 275 402 242T499 209Q562 209 607 233T677 292T701 356L779 226Q763 186 737 143T669 63T570 3T432 -20Q330 -20 246 21T113 136T64 305Q64 475 190 568T565 662H726L728 488ZM943 1256V1244H704L548 1385L395 1244H160V1259L462
1537H636L943 1256Z" />
<glyph unicode="&#xe3;" horiz-adv-x="1097" d="M687 721Q687 794 651 837T536 880Q491 880 458 865T408 823T391 755H89Q89 851 146 929T307 1055T552 1102Q678 1102 777 1060T933 932T990 719V267Q990 171 1001 115T1034 17V0H730Q708 46 698 115T687 255V721ZM728
488H574Q464 488 415 441T366 326Q366 275 402 242T499 209Q562 209 607 233T677 292T701 356L779 226Q763 186 737 143T669 63T570 3T432 -20Q330 -20 246 21T113 136T64 305Q64 475 190 568T565 662H726L728 488ZM926 1523Q926 1450 897 1389T816 1291T697 1254Q650
1254 616 1266T552 1296T492 1326T423 1339Q388 1339 365 1315T341 1245L167 1255Q167 1327 196 1388T277 1488T395 1526Q434 1526 468 1513T535 1484T599 1454T670 1441Q704 1441 729 1465T754 1535L926 1523Z" />
<glyph unicode="&#xe4;" horiz-adv-x="1097" d="M687 721Q687 794 651 837T536 880Q491 880 458 865T408 823T391 755H89Q89 851 146 929T307 1055T552 1102Q678 1102 777 1060T933 932T990 719V267Q990 171 1001 115T1034 17V0H730Q708 46 698 115T687 255V721ZM728
488H574Q464 488 415 441T366 326Q366 275 402 242T499 209Q562 209 607 233T677 292T701 356L779 226Q763 186 737 143T669 63T570 3T432 -20Q330 -20 246 21T113 136T64 305Q64 475 190 568T565 662H726L728 488ZM158 1365Q158 1419 198 1457T300 1495Q362 1495
402 1457T443 1365Q443 1310 403 1273T300 1235Q239 1235 199 1272T158 1365ZM652 1364Q652 1419 692 1456T794 1494Q855 1494 895 1457T936 1364Q936 1309 896 1272T794 1234Q733 1234 693 1271T652 1364Z" />
<glyph unicode="&#xe5;" horiz-adv-x="1097" d="M687 721Q687 794 651 837T536 880Q491 880 458 865T408 823T391 755H89Q89 851 146 929T307 1055T552 1102Q678 1102 777 1060T933 932T990 719V267Q990 171 1001 115T1034 17V0H730Q708 46 698 115T687 255V721ZM728
488H574Q464 488 415 441T366 326Q366 275 402 242T499 209Q562 209 607 233T677 292T701 356L779 226Q763 186 737 143T669 63T570 3T432 -20Q330 -20 246 21T113 136T64 305Q64 475 190 568T565 662H726L728 488ZM326 1420Q326 1505 389 1565T550 1626Q647 1626
710 1566T774 1420Q774 1337 711 1278T550 1219Q453 1219 390 1278T326 1420ZM443 1420Q443 1377 472 1346T550 1314Q599 1314 628 1345T657 1420Q657 1464 628 1496T550 1529Q501 1529 472 1497T443 1420Z" />
<glyph unicode="&#xe6;" horiz-adv-x="1730" d="M723 705Q723 776 684 817T572 859Q492 859 447 825T402 743L101 763Q101 861 159 937T324 1058T575 1102Q775 1102 895 1002T1016 703V218L723 183V705ZM769 456H568Q502 456 458 437T390 385T367 317Q367 265
406 233T528 200Q569 200 611 214T690 252T749 301T771 351L911 192Q885 144 828 95T682 13T470 -20Q274 -20 170 72T65 321Q65 479 192 565T566 652H767L769 456ZM1245 -20Q1077 -20 961 45T785 227T725 492V564Q725 722 782 844T950 1034T1223 1102Q1437 1102
1558 970T1679 611V444H848V645H1382V672Q1382 729 1365 771T1313 836T1223 859Q1147 859 1102 821T1036 715T1016 564V492Q1016 416 1042 355T1127 259T1278 224Q1382 224 1447 246T1571 297L1649 101Q1614 73 1554 45T1416 -1T1245 -20Z" />
<glyph unicode="&#xe7;" horiz-adv-x="1069" d="M560 223Q611 223 650 242T710 296T733 379H1017Q1016 262 956 172T794 31T565 -20Q397 -20 286 53T119 250T63 527V554Q63 708 118 832T285 1029T564 1102Q698 1102 799 1051T958 904T1017 675H733Q732 726 713
767T654 834T558 859Q478 859 437 816T380 704T365 554V527Q365 446 379 377T436 265T560 223ZM674 6L662 -52Q718 -62 765 -100T812 -225Q812 -335 722 -401T456 -467L449 -294Q481 -294 504 -286T542 -260T556 -214Q556 -174 523 -159T416 -138L447 6H674Z" />
<glyph unicode="&#xe8;" horiz-adv-x="1110" d="M613 -20Q442 -20 321 51T135 241T70 504V543Q70 705 131 831T307 1030T579 1102Q736 1102 843 1036T1005 851T1060 570V442H197V645H763V669Q763 725 743 768T683 835T577 859Q503 859 458 817T393 704T372 543V504Q372
421 403 358T492 260T632 224Q709 224 776 252T890 342L1036 175Q985 102 879 41T613 -20ZM708 1226H461L182 1537H510L708 1226Z" />
<glyph unicode="&#xe9;" horiz-adv-x="1110" d="M613 -20Q442 -20 321 51T135 241T70 504V543Q70 705 131 831T307 1030T579 1102Q736 1102 843 1036T1005 851T1060 570V442H197V645H763V669Q763 725 743 768T683 835T577 859Q503 859 458 817T393 704T372 543V504Q372
421 403 358T492 260T632 224Q709 224 776 252T890 342L1036 175Q985 102 879 41T613 -20ZM589 1537H917L638 1226H393L589 1537Z" />
<glyph unicode="&#xea;" horiz-adv-x="1110" d="M613 -20Q442 -20 321 51T135 241T70 504V543Q70 705 131 831T307 1030T579 1102Q736 1102 843 1036T1005 851T1060 570V442H197V645H763V669Q763 725 743 768T683 835T577 859Q503 859 458 817T393 704T372 543V504Q372
421 403 358T492 260T632 224Q709 224 776 252T890 342L1036 175Q985 102 879 41T613 -20ZM937 1257V1245H698L542 1386L389 1245H154V1260L456 1538H630L937 1257Z" />
<glyph unicode="&#xeb;" horiz-adv-x="1110" d="M613 -20Q442 -20 321 51T135 241T70 504V543Q70 705 131 831T307 1030T579 1102Q736 1102 843 1036T1005 851T1060 570V442H197V645H763V669Q763 725 743 768T683 835T577 859Q503 859 458 817T393 704T372 543V504Q372
421 403 358T492 260T632 224Q709 224 776 252T890 342L1036 175Q985 102 879 41T613 -20ZM152 1366Q152 1420 192 1458T294 1496Q356 1496 396 1458T437 1366Q437 1311 397 1274T294 1236Q233 1236 193 1273T152 1366ZM646 1365Q646 1420 686 1457T788 1495Q849
1495 889 1458T930 1365Q930 1310 890 1273T788 1235Q727 1235 687 1272T646 1365Z" />
<glyph unicode="&#xec;" horiz-adv-x="568" d="M434 0H131V1082H434V0ZM451 1208H204L-75 1519H253L451 1208Z" />
<glyph unicode="&#xed;" horiz-adv-x="568" d="M434 0H131V1082H434V0ZM331 1519H659L380 1208H135L331 1519Z" />
<glyph unicode="&#xee;" horiz-adv-x="568" d="M434 0H131V1082H434V0ZM679 1239V1227H440L284 1368L131 1227H-104V1242L198 1520H372L679 1239Z" />
<glyph unicode="&#xef;" horiz-adv-x="568" d="M434 0H131V1082H434V0ZM-106 1348Q-106 1402 -66 1440T36 1478Q98 1478 138 1440T179 1348Q179 1293 139 1256T36 1218Q-25 1218 -65 1255T-106 1348ZM388 1347Q388 1402 428 1439T530 1477Q591 1477 631 1440T672
1347Q672 1292 632 1255T530 1217Q469 1217 429 1254T388 1347Z" />
<glyph unicode="&#xf0;" horiz-adv-x="1176" d="M326 1580Q556 1534 733 1409T1010 1091T1111 652V582Q1111 404 1043 268T856 56T585 -20Q434 -20 320 45T143 221T80 468Q80 617 133 729T287 903T532 965Q645 965 735 916T881 781T945 586L838 588Q838 612 824
638T780 687T705 723T600 737Q528 737 480 705T406 613T381 468Q381 401 406 345T477 256T589 223Q661 223 709 266T782 383T807 550V654Q807 809 760 926T631 1127T445 1265T230 1347L326 1580ZM420 1030L340 1147L911 1509L989 1392L420 1030Z" />
<glyph unicode="&#xf1;" horiz-adv-x="1150" d="M403 0H101V1082H385L403 851V0ZM279 573Q279 737 332 855T481 1038T704 1102Q806 1102 882 1062T1002 932T1046 686V0H743V688Q743 755 724 791T667 842T576 857Q521 857 481 837T414 778T374 689T361 577L279
573ZM955 1524Q955 1451 926 1390T845 1292T726 1255Q679 1255 645 1267T581 1297T521 1327T452 1340Q417 1340 394 1316T370 1246L196 1256Q196 1328 225 1389T306 1489T424 1527Q463 1527 497 1514T564 1485T628 1455T699 1442Q733 1442 758 1466T783 1536L955
1524Z" />
<glyph unicode="&#xf2;" horiz-adv-x="1158" d="M63 551Q63 709 123 833T298 1030T577 1102Q743 1102 858 1030T1033 834T1093 551V530Q1093 373 1034 248T859 52T579 -20Q414 -20 299 51T123 248T63 530V551ZM366 530Q366 445 386 375T453 264T579 223Q657 223
703 264T770 375T791 530V551Q791 634 771 704T704 817T577 859Q499 859 453 817T386 705T366 551V530ZM743 1225H496L217 1536H545L743 1225Z" />
<glyph unicode="&#xf3;" horiz-adv-x="1158" d="M63 551Q63 709 123 833T298 1030T577 1102Q743 1102 858 1030T1033 834T1093 551V530Q1093 373 1034 248T859 52T579 -20Q414 -20 299 51T123 248T63 530V551ZM366 530Q366 445 386 375T453 264T579 223Q657 223
703 264T770 375T791 530V551Q791 634 771 704T704 817T577 859Q499 859 453 817T386 705T366 551V530ZM622 1536H950L671 1225H426L622 1536Z" />
<glyph unicode="&#xf4;" horiz-adv-x="1158" d="M63 551Q63 709 123 833T298 1030T577 1102Q743 1102 858 1030T1033 834T1093 551V530Q1093 373 1034 248T859 52T579 -20Q414 -20 299 51T123 248T63 530V551ZM366 530Q366 445 386 375T453 264T579 223Q657 223
703 264T770 375T791 530V551Q791 634 771 704T704 817T577 859Q499 859 453 817T386 705T366 551V530ZM970 1256V1244H731L575 1385L422 1244H187V1259L489 1537H663L970 1256Z" />
<glyph unicode="&#xf5;" horiz-adv-x="1158" d="M63 551Q63 709 123 833T298 1030T577 1102Q743 1102 858 1030T1033 834T1093 551V530Q1093 373 1034 248T859 52T579 -20Q414 -20 299 51T123 248T63 530V551ZM366 530Q366 445 386 375T453 264T579 223Q657 223
703 264T770 375T791 530V551Q791 634 771 704T704 817T577 859Q499 859 453 817T386 705T366 551V530ZM955 1524Q955 1451 926 1390T845 1292T726 1255Q679 1255 645 1267T581 1297T521 1327T452 1340Q417 1340 394 1316T370 1246L196 1256Q196 1328 225 1389T306
1489T424 1527Q463 1527 497 1514T564 1485T628 1455T699 1442Q733 1442 758 1466T783 1536L955 1524Z" />
<glyph unicode="&#xf6;" horiz-adv-x="1158" d="M63 551Q63 709 123 833T298 1030T577 1102Q743 1102 858 1030T1033 834T1093 551V530Q1093 373 1034 248T859 52T579 -20Q414 -20 299 51T123 248T63 530V551ZM366 530Q366 445 386 375T453 264T579 223Q657 223
703 264T770 375T791 530V551Q791 634 771 704T704 817T577 859Q499 859 453 817T386 705T366 551V530ZM186 1365Q186 1419 226 1457T328 1495Q390 1495 430 1457T471 1365Q471 1310 431 1273T328 1235Q267 1235 227 1272T186 1365ZM680 1364Q680 1419 720 1456T822
1494Q883 1494 923 1457T964 1364Q964 1309 924 1272T822 1234Q761 1234 721 1271T680 1364Z" />
<glyph unicode="&#xf7;" horiz-adv-x="1168" d="M1094 566H63V805H1094V566ZM409 1089Q409 1158 455 1202T579 1246Q656 1246 702 1202T748 1089Q748 1021 702 977T579 933Q502 933 456 977T409 1089ZM409 277Q409 346 455 390T579 434Q656 434 702 390T748 277Q748
209 702 165T579 121Q502 121 456 165T409 277Z" />
<glyph unicode="&#xf8;" horiz-adv-x="1156" d="M333 -143H167L830 1217H996L333 -143ZM63 551Q63 709 123 833T298 1030T577 1102Q743 1102 858 1030T1033 834T1093 551V530Q1093 373 1034 248T859 52T579 -20Q414 -20 299 51T123 248T63 530V551ZM366 530Q366
445 386 375T453 264T579 223Q657 223 703 264T770 375T791 530V551Q791 634 771 704T704 817T577 859Q499 859 453 817T386 705T366 551V530Z" />
<glyph unicode="&#xf9;" horiz-adv-x="1149" d="M743 1082H1045V0H762L743 261V1082ZM864 487Q864 341 820 227T686 46T460 -20Q300 -20 201 73T101 382V1082H403V380Q403 325 421 291T473 241T550 225Q637 225 686 259T756 352T777 485L864 487ZM740 1225H493L214
1536H542L740 1225Z" />
<glyph unicode="&#xfa;" horiz-adv-x="1149" d="M743 1082H1045V0H762L743 261V1082ZM864 487Q864 341 820 227T686 46T460 -20Q300 -20 201 73T101 382V1082H403V380Q403 325 421 291T473 241T550 225Q637 225 686 259T756 352T777 485L864 487ZM620 1536H948L669
1225H424L620 1536Z" />
<glyph unicode="&#xfb;" horiz-adv-x="1149" d="M743 1082H1045V0H762L743 261V1082ZM864 487Q864 341 820 227T686 46T460 -20Q300 -20 201 73T101 382V1082H403V380Q403 325 421 291T473 241T550 225Q637 225 686 259T756 352T777 485L864 487ZM968 1256V1244H729L573
1385L420 1244H185V1259L487 1537H661L968 1256Z" />
<glyph unicode="&#xfc;" horiz-adv-x="1149" d="M743 1082H1045V0H762L743 261V1082ZM864 487Q864 341 820 227T686 46T460 -20Q300 -20 201 73T101 382V1082H403V380Q403 325 421 291T473 241T550 225Q637 225 686 259T756 352T777 485L864 487ZM184 1365Q184
1419 224 1457T326 1495Q388 1495 428 1457T469 1365Q469 1310 429 1273T326 1235Q265 1235 225 1272T184 1365ZM678 1364Q678 1419 718 1456T820 1494Q881 1494 921 1457T962 1364Q962 1309 922 1272T820 1234Q759 1234 719 1271T678 1364Z" />
<glyph unicode="&#xfd;" horiz-adv-x="1035" d="M711 1082H1034L602 -162Q588 -202 564 -249T501 -340T401 -410T253 -437Q225 -437 205 -435T165 -429T122 -418V-190Q133 -190 144 -190T166 -191Q251 -191 290 -165T349 -82L428 125L711 1082ZM551 317L592 -16L388
-30L1 1082H326L551 317ZM569 1536H897L618 1225H373L569 1536Z" />
<glyph unicode="&#xfe;" horiz-adv-x="1160" d="M412 -416H109V1536H412V-416ZM1092 532Q1092 375 1044 250T902 53T671 -20Q537 -20 452 52T319 248T252 520V551Q272 710 319 834T451 1030T669 1102Q806 1102 900 1034T1043 842T1092 553V532ZM789 553Q789 641
770 709T707 817T590 857Q534 857 494 840T429 788T391 705T377 590V480Q381 406 402 348T469 257T592 223Q665 223 708 265T770 377T789 532V553Z" />
<glyph unicode="&#xff;" horiz-adv-x="1035" d="M711 1082H1034L602 -162Q588 -202 564 -249T501 -340T401 -410T253 -437Q225 -437 205 -435T165 -429T122 -418V-190Q133 -190 144 -190T166 -191Q251 -191 290 -165T349 -82L428 125L711 1082ZM551 317L592 -16L388
-30L1 1082H326L551 317ZM132 1365Q132 1419 172 1457T274 1495Q336 1495 376 1457T417 1365Q417 1310 377 1273T274 1235Q213 1235 173 1272T132 1365ZM626 1364Q626 1419 666 1456T768 1494Q829 1494 869 1457T910 1364Q910 1309 870 1272T768 1234Q707 1234
667 1271T626 1364Z" />
<glyph unicode="&#x2013;" horiz-adv-x="1289" d="M1446 589H407V836H1446V589Z" />
<glyph unicode="&#x2014;" horiz-adv-x="1559" d="M1747 589H361V836H1747V589Z" />
<glyph unicode="&#x2018;" horiz-adv-x="488" d="M105 1199Q105 1265 130 1335T197 1467T289 1573L429 1492Q393 1433 367 1364T341 1199V1044H105V1199Z" />
<glyph unicode="&#x2019;" horiz-adv-x="478" d="M383 1377Q383 1312 358 1242T292 1110T200 1004L60 1084Q96 1144 122 1213T148 1378V1536H383V1377Z" />
<glyph unicode="&#x201a;" horiz-adv-x="521" d="M393 64Q393 -1 368 -71T302 -203T209 -309L70 -229Q106 -169 128 -100T150 65V235H395L393 64Z" />
<glyph unicode="&#x201c;" horiz-adv-x="845" d="M113 1199Q113 1265 138 1335T205 1467T297 1573L437 1492Q401 1433 375 1364T349 1199V1044H113V1199ZM461 1199Q461 1265 486 1335T553 1467T645 1573L785 1492Q749 1433 723 1364T697 1199V1044H461V1199Z" />
<glyph unicode="&#x201d;" horiz-adv-x="852" d="M397 1377Q397 1312 372 1242T306 1110T214 1004L74 1084Q110 1144 136 1213T162 1378V1536H397V1377ZM750 1377Q750 1312 725 1242T659 1110T567 1004L427 1084Q463 1144 489 1213T515 1378V1536H750V1377Z" />
<glyph unicode="&#x201e;" horiz-adv-x="841" d="M393 64Q393 -5 370 -79T308 -218T218 -329L70 -249Q106 -186 128 -112T150 65V265H395L393 64ZM744 64Q744 -5 719 -79T652 -218T560 -329L412 -249Q447 -186 473 -112T500 65V265H745L744 64Z" />
<glyph unicode="&#x2022;" horiz-adv-x="742" d="M135 766Q135 869 200 935T375 1001Q489 1001 554 935T619 766V728Q619 626 555 562T378 497Q266 497 201 561T135 728V766Z" />
<glyph unicode="&#x2039;" horiz-adv-x="642" d="M339 517L108 518V531L387 922H579L339 517ZM579 122H387L108 512V525L339 526L579 122Z" />
<glyph unicode="&#x203a;" horiz-adv-x="620" d="M319 526L550 525V512L272 121H79L319 526ZM272 921L550 531V518L319 517L79 921H272Z" />
</font>
</defs>
</svg>
